Change font size
It is currently 2019-11-12, 7:24 pm


Post a new topicPost a reply Page 1 of 1   [ 4 posts ]
Author Message
 Post subject: cue issue
PostPosted: 2013-03-02, 5:19 pm 

Joined: 2013-03-02
Posts: 3
I have my cue file and wav file in the same folder. Below is piece of the .cue but I am getting a line 1error. Can someone help? I am guessing something about the File line but I tired everything and still get the error.
Code:
FILE "Aries_Exhibit_F.wav" WAVE
TITLE "Aries-Exhibit F"
TRACK 01 AUDIO
PERFORMER "Zombie Nation"
TITLE "Kernkraft 400 (Live / Chant Version)"
INDEX 01 00:00:00
TRACK 02 AUDIO
PERFORMER "Kuffdam & Plant Feat. Terry Ferminal"
TITLE "The Ones We Loved (Dogzilla Remix) (Exhibit Edit)"
INDEX 01 01:37:33
.......


the name of my cue file is "Aries_Exhibit_F.cue"


Top
 Profile  
 
 Post subject: Re: cue issue
PostPosted: 2013-03-02, 5:37 pm 

Joined: 2013-03-02
Posts: 3
jbelle7435 Wrote:
I have my cue file and wav file in the same folder. Below is piece of the .cue but I am getting a line 1error. Can someone help? I am guessing something about the File line but I tired everything and still get the error.
Code:
FILE "Aries_Exhibit_F.wav" WAVE
TITLE "Aries-Exhibit F"
TRACK 01 AUDIO
PERFORMER "Zombie Nation"
TITLE "Kernkraft 400 (Live / Chant Version)"
INDEX 01 00:00:00
TRACK 02 AUDIO
PERFORMER "Kuffdam & Plant Feat. Terry Ferminal"
TITLE "The Ones We Loved (Dogzilla Remix) (Exhibit Edit)"
INDEX 01 01:37:33
.......

the name of my cue file is "Aries_Exhibit_F.cue"


1.I copy all my text
2. Opened up another note pad
3 . pasted the cue file code in the new notepad
4. saved as "a.cue" . I picked "a" just for the hell of it

and it worked without any error! I guess the file I was using was corrupted or the name was too similar to the wav file!


Top
 Profile  
 
 Post subject: Re: cue issue
PostPosted: 2013-03-02, 7:19 pm 

Joined: 2013-03-02
Posts: 3
I did this years ago and worked out and then one day I forgot. This time I won't forget.

TUTORIAL HOW TO CREATE AN AUDIO CD FROM ONE MP3 LONG MP3 FILE

HERE WE GO

1.CREATE A FOLDER AND NAME IT WITH REGARDS TO YOUR MIX
1.1: NAMING IT WITH SPACES IS OK

2.PLACE YOU MP3 MIX INSIDE THAT FOLDER

3.CONVERT YOUR MP3 TO A WAV FILE
3.1 : I PERFER WINAMP(FILE WRITER OUTPUT PLUGIN V1.17© (X86) [OUT_FILEWRITE.DLL]
NOTE: FILE NAME: NO SPECIAL CHARATCTERS OR SPACES INBETWEEN
EXAMPLE "MUSIC B.wav"-->MUSIC_B.wav or MUSIC-B.wav
3.2: MAKE SURE THE LOCATION IS WITHIN THE FOLDER YOU CREATED IN STEP 1

4.CREATE A NEW NOTEPAD FILE INSIDE THE FOLDER WITH THE ORIGINAL MP3 AND NEW WAV FILE
4.1: NOW FOLLOW THIS CODE ACCODINGLY
TITLE "XXXXX" <-------TITLE OF YOUR MIX CAN HAVE SPACES BUT NO SPECIAL CHARACTERS
FILE "XXXXX.wav" WAVE <---EXACT NAME OF WAV WITHOUT SPACES ONLY(LOCATION NOT NEEDED)

TRACK 01 AUDIO <-----YOUR FIRST TRACK
PERFORMER "XXXXX" <-----YOUR FIRST TRACK PERFORMER
TITLE "XXXXXX" <-----YOUR FIRST TITLE
INDEX 01 00:00:00 <-----TIME THAT BEGINS YOUR FIRST TRACK[ALWAYS KEEP INDEX VALUE 01]

TRACK 02 AUDIO <-----YOUR SECOND TRACK
PERFORMER "XXXXX" <-----YOUR SECOND TRACK PERFORMER
TITLE "XXXXXXXX" <-----YOUR SECOND TITLE
INDEX 01 01:37:33 <-----TIME THAT BEGINS YOUR SECOND TRACK[ALWAYS KEEP INDEX VALUE 01]

EXAMPLE IT SHOULD LOOK EXACTLY IN THE NOTEPAD FILE
Code:
TITLE "XXXXX"
FILE "XXXXX.wav" WAVE
TRACK 01 AUDIO   
PERFORMER "XXXXX
TITLE "XXXXXX
INDEX 01 00:00:00
TRACK 02 AUDIO   
PERFORMER "XXXXX
TITLE "XXXXXXXX"   
INDEX 01 01:37:33
…….
…..
..
.


4.2: THERE WILL BE NO SPACES BETWEEN THE LINES LIKE ABOVE
4.3:THE TRICK IS REMEMBER TPTI(TRACK,PERFORMER,TITLE,INDEX) AS LONG AS YOU HAVE A TPTI FOR EVER SONG IN THE MIX YOU SHOULD NOT HAVE A PROBLEM. FROM THE 1ST TO THE LAST TRACK WILL EACH HAVE A TPTI.
4.4: YOU WILL HAVE TO KNOW THE P,T,I INFO TO MAKE YOUR PERFECT MIX WHICH MIGHT BE KNOWN ALREADY BY OTHER SOURCES. IF CAN'T FIND IT JUST BROWSE THE MP3 FILE TO EACH TRACK LOCATION CHANGE TO FIND THE INDEX TIME! THE PERFORMER AND TRACK WILL BE KNOWN BY THE SOUND OF THE MUSIC.
4.5. SAVE AS THE NOTEPAD FILE ONCE COMPLETE
NAME: "XXX.CUE" <---DO NOT NAME YOUR FILE THE SAME NAME AS THE .wav file you are using(NO SAPCES)
4.6 SAVE AS LOCATION SAME LOCATION AS FOLDER YOU CREATED STATED IN STEP 4
4.7: CLOSE THE CUE FILE

5.OPEN UP NERO
5.1 GO TO COPY AND BACK UP AND SELECT "BURN IMAGE TO DISK"
5.2 SELECT DISC IMAGE OR SAVED PROJECT
5.3 SELECT FROM THE DROP DOWN MENU OF FILE TYPES "IMAGE FILES(.NRG, .ISO, .CUE)"
5.4 FIND YOUR FILE AND SELECT OPEN
5.5 THERE SHOULD BE NO ERRORS IF EVERYTHING ABOVE WAS DONE PROPERLY

6.HIT NEXT AND CD BURNING SHOULD PROCEED!


Top
 Profile  
 
 Post subject: Re: cue issue
PostPosted: 2015-01-03, 4:01 pm 

Joined: 2015-01-03
Posts: 1
Check FreeCorder of FreeCorder toolabar out! Think it suits your needs! If not, tell me to search more thoroughly! Just to know it, it helped me once... Don't know if it does the same to you, too, though!

_________________
ali


Top
 Profile  
 
Display posts from previous:  Sort by  
Post a new topicPost a reply Page 1 of 1   [ 4 posts ]


Who is online

Users browsing this forum: No registered users and 1 guest


You cannot post new topics in this forum
You cannot reply to topics in this forum
You cannot edit your posts in this forum
You cannot delete your posts in this forum
You cannot post attachments in this forum

Search for:
Jump to:  
cron